#TITLE:%10 -SHD Mix-;
#SUBTITLE:~Quattro!!! re-edit~;
#ARTIST:Pory;
#TITLETRANSLIT:;
#SUBTITLETRANSLIT:;
#ARTISTTRANSLIT:;
#CREDIT:;
#BANNER:%10 SHD mix-banner.png;
#BACKGROUND:%10 SHD mix-bg.png;
#LYRICSPATH:;
#CDTITLE:quattro!!!cdtittle.png;
#MUSIC:Pory - %10.mp3;
#OFFSET:-0.828;
#SAMPLESTART:89.420;
#SAMPLELENGTH:14.840;
#SELECTABLE:YES;
#BPMS:0.000=130.000;
#STOPS:;
#BGCHANGES:;
// cache tags:
#FIRSTBEAT:0.000;
#LASTBEAT:260.000;
#SONGFILENAME:Songs/Chilean Keyboard Megapack 3/(Quattro!!!) %10 -SHD mix-/%10.sm;
#HASMUSIC:1;
#HASBANNER:1;
#MUSICLENGTH:127.911;
// end cache tags

//---------------dance-single - ----------------
#NOTES:
     dance-single:
     :
     Challenge:
     15:
     1.000,1.000,1.000,0.579,1.000,768.000,598.000,74.000,0.000,94.000:
1111
0000
2100
0000
3102
0000
1103
0110
0101
1010
1100
0000
0120
0000
1130
0110
,
0011
0000
2100
0000
3210
0000
0311
0110
1100
0110
0012
0000
0123
0000
1130
0110
,
0012
0000
2103
0000
3012
0000
0113
1001
0011
1001
1200
0000
0312
0000
1103
0110
,
0012
0000
0213
0000
2301
0000
3011
0110
1100
0110
0012
0000
2103
0000
3110
1001
,
1111
0000
2100
0000
3012
0000
0113
1100
0110
1001
0120
0000
2130
0000
3101
0110
,
2100
0000
3210
0000
0312
0000
1103
0110
1001
0011
0102
0000
2103
0000
3110
0011
,
1111
0000
2100
0000
3210
0000
0311
1100
1001
0101
0012
0000
2103
0000
3110
0011
,
1111
0000
2100
0000
3012
0000
0113
1100
0110
0011
0210
0000
0311
1100
0011
1100
,
1111
0010
0101
1000
0120
0000
1130
0001
0110
1000
0120
0000
1130
0010
0101
0000
,
1100
0010
0101
1000
0120
0000
1130
0001
0110
0001
2100
0000
3110
0001
1100
0000
,
0101
1000
0110
1000
0102
0000
1103
0010
0101
0010
2100
0000
3110
0001
0110
0000
,
1100
0010
0101
0010
2100
0000
3110
0001
1010
0100
0012
0000
1103
0010
1100
0010
,
1001
0100
1010
0001
0210
0000
1310
0001
0110
1000
0102
0000
1103
0010
1100
0000
,
0011
1000
0110
0001
2010
0000
3110
0001
1100
0010
0102
0000
0113
1000
0110
0000
,
0011
1000
0110
0001
0210
0000
1310
0001
0110
0001
2100
0000
3110
0001
1010
0000
,
0112
0000
0000
0000
2113
0000
0000
0000
3121
0000
1130
0110
0011
0110
1100
0110
,
1111
0000
1100
0000
0011
0000
1100
0110
0011
0110
0101
0000
1100
0000
0011
1100
,
0110
0000
1100
0000
0011
0000
1001
0101
0011
1001
1010
0000
1100
0000
0011
0110
,
1100
0000
1100
0000
0011
0000
0110
1001
0110
1001
0110
0000
1100
0000
0011
1001
,
0110
0000
1100
0000
0011
0000
0101
0110
2100
0000
3012
0000
0123
0000
2230
0000
,
3311
0000
1100
0000
0011
0000
0011
1100
0011
1100
0011
0000
1100
0000
1001
0110
,
1001
0000
0110
0000
1100
0000
0011
0101
1010
0110
0101
0000
1100
0000
0110
0101
,
0110
0000
1100
0000
0110
0000
0101
0110
1100
0110
0101
0000
1100
0000
0110
1001
,
0110
0000
1100
0000
0110
0000
0011
0101
1001
0101
0011
0000
1100
1010
1001
1010
,
1111
0000
1100
0000
0011
0000
0110
1001
0110
1100
0101
0000
1100
0000
0011
0101
,
1010
0000
1100
0000
0101
0000
0110
1001
1100
0101
0011
0000
1100
0000
0101
1010
,
0101
0000
1100
0000
0110
0000
0101
1010
0101
1010
0101
0000
1100
0000
0101
1010
,
0110
0000
1100
0110
0000
0011
0110
0000
1100
0110
1100
0000
0101
0110
1100
0110
,
0101
0000
1100
0000
0011
0000
0011
0011
0011
0011
0011
0000
1100
0000
0110
0110
,
0110
0000
1100
0000
0101
0000
1001
1001
1001
1001
1001
0000
0110
0000
0011
0011
,
0011
0000
1100
0000
0110
0000
1100
1100
1100
1100
1100
0000
0110
0000
0101
0101
,
0101
0000
0110
0000
1100
0000
0101
0101
0101
0101
0101
0000
1010
0001
1010
1010
,
1010
0100
0010
0001
0010
0100
0010
0001
1000
0100
0010
0001
0010
0100
0010
0001
,
1000
0100
0010
0001
0010
0100
1000
0100
0010
0100
0010
0100
1000
0100
1000
0100
,
0010
0100
0010
0001
0010
0001
0010
0100
0010
0100
1000
0100
1000
0100
0010
0001
,
0010
0100
0010
0001
1000
0100
0010
0100
1000
0100
0010
0001
0010
0100
1000
0100
,
0010
0100
0010
0001
0010
0001
1000
0001
1000
0001
0010
0001
1000
0001
0100
0001
,
0010
1000
0100
0010
0001
0010
0100
0010
0001
1000
0100
0010
0100
1000
0100
0010
,
0001
0010
0100
0010
0001
1000
0100
0010
0100
1000
0100
0010
0001
0010
0100
1000
,
0112
0000
0000
0000
2113
0000
0000
0000
3121
0000
1131
1101
1101
1101
1101
1101
,
1101
0000
1100
0110
0011
0000
1100
0011
1100
0011
1100
0011
1100
0000
0011
0000
,
1100
0000
0011
0110
1100
0000
0110
1001
0110
1001
0110
1001
0110
0000
1100
0000
,
0011
0000
0110
0011
0110
0000
0101
0011
0101
0011
0101
0011
0101
0000
1100
0000
,
0110
0000
1100
0110
0011
0000
1100
1010
1100
1010
1100
1010
1100
0000
0110
0000
,
0011
0000
1100
0110
0101
0000
0110
0011
0110
0011
0110
0011
0110
0000
1100
0000
,
0110
0000
0011
0110
1100
0000
0110
1100
0110
1100
0110
1100
0110
0000
0110
0000
,
1100
0000
0110
0011
0110
0000
1010
1001
1010
1001
1010
1001
1010
0000
0110
0000
,
0112
0000
0000
0000
2113
0000
0000
0000
3121
0000
1131
1101
1101
1101
1101
1101
,
1101
0000
0110
0000
1001
0000
1100
1010
1001
1010
1100
0000
0110
0000
0011
0101
,
1001
0000
0110
0000
1001
0000
0110
1010
0011
1010
0110
0000
1100
0000
0110
1001
,
0110
0000
1100
0000
0011
0000
1100
0110
0101
0110
1100
0000
0110
0000
0101
0110
,
1100
0000
0110
0000
0101
0000
1010
1100
1002
0000
0213
0000
2310
0000
3220
0000
,
1331
0000
0110
0000
0011
0000
1001
0110
1001
0110
1001
0000
0110
0000
0011
1100
,
0011
0000
1100
0000
0110
0000
0101
1010
0101
1010
0101
0000
1010
0000
0110
1010
,
0110
0000
1100
0000
0110
0000
0101
0110
0101
0110
0101
0000
1100
0000
0110
1001
,
0110
0000
1100
0000
0011
0000
1100
0110
0101
0110
1100
0000
0110
1001
0110
1001
,
0110
0000
0110
0000
1010
0000
1001
1001
1001
1001
1001
0000
0110
0000
0110
0110
,
0110
0000
1100
0000
0011
0000
0101
0101
0101
0101
0101
0000
1010
0000
1100
1100
,
1100
0000
0110
0000
0101
0000
1010
1010
1010
1010
1010
0000
0110
0000
0101
0101
,
0102
1100
1100
1100
0000
0000
0000
0000
0113
0110
0110
1100
0000
0000
0101
0000
,
1010
0100
0011
0100
1010
0000
0110
0001
0110
1000
0110
0000
1100
0010
0101
0010
,
1100
0010
0101
0010
1100
0000
0011
0100
0011
1000
0011
0100
1001
0010
0101
0010
,
0101
0010
1100
0010
0101
0000
1100
0010
0101
0010
1100
0000
0011
0100
1010
0100
,
0011
1000
0110
0001
0110
0000
1100
0010
0102
0000
2103
0000
3210
0000
0322
0000
,
1133
0000
0000
0000
0000
0000
1100
0011
2200
0000
0000
0000
0000
0000
0000
0000
,
3300
0000
0000
0000
;
